open heaven 19 october pdf | yesterday’s torrents | Caribbean 110916 299
New Download Links
Speed
 kbps
 kbps
 kbps

Meru (2015)

Category: Documentaries | Author: sddd



Meru (2015)
Meru (2015)
BRRip | 1280x720 | .MKV/AVC @ 3044 Kbps | 1h 30mn | Audio: English AC3 448 kbps, 6 channels | Subs: None | 2.20 GiB
Genre: Documentary | Action | Adventure | Sport

Three elite climbers struggle to find their way through obsession and loss as they attempt to climb Mount Meru, one of the most coveted prizes in the high stakes game of Himalayan big wall climbing.
More info

General
Unique ID : 191260758684931069978888381008086749908 (0x8FE37B73ABD6171EBA58781A4C5ED2D4)
Complete name : Meru.2015.BRRip.mkv
Format : Matroska
Format version : Version 2
File size : 2.20 GiB
Duration : 1h 30mn
Overall bit rate : 3 493 Kbps

Video
ID : 1
Format : AVC
Format/Info : Advanced Video Codec
Format profile : [email protected]
Format settings, CABAC : Yes
Format settings, ReFrames : 4 frames
Codec ID : V_MPEG4/ISO/AVC
Duration : 1h 30mn
Bit rate : 3 044 Kbps
Width : 1 280 pixels
Height : 720 pixels
Display aspect ratio : 16:9
Frame rate mode : Constant
Frame rate : 23.976 fps
Color space : YUV
Chroma subsampling : 4:2:0
Bit depth : 8 bits
Scan type : Progressive
Bits/(Pixel*Frame) : 0.138
Stream size : 1.87 GiB (85%)
Writing library : x264 core 146 r2538 121396c
Encoding settings : cabac=1 / ref=3 / deblock=1:-1:-1 / analyse=0x3:0x113 / me=hex / subme=7 / psy=1 / psy_rd=1.00:0.15 / mixed_ref=1 / me_range=16 / chroma_me=1 / trellis=2 / 8x8dct=1 / cqm=0 / deadzone=21,11 / fast_pskip=1 / chroma_qp_offset=-3 / threads=12 / lookahead_threads=2 / sliced_threads=0 / nr=0 / decimate=1 / interlaced=0 / bluray_compat=0 / constrained_intra=0 / bframes=3 / b_pyramid=2 / b_adapt=1 / b_bias=0 / direct=1 / weightb=1 / open_gop=0 / weightp=2 / keyint=240 / keyint_min=23 / scenecut=40 / intra_refresh=0 / rc_lookahead=40 / rc=2pass / mbtree=1 / bitrate=3044 / ratetol=1.0 / qcomp=0.80 / qpmin=0 / qpmax=69 / qpstep=4 / cplxblur=20.0 / qblur=0.5 / vbv_maxrate=62500 / vbv_bufsize=78125 / nal_hrd=none / filler=0 / ip_ratio=1.40 / aq=1:1.00
Default : Yes
Forced : No

Audio
ID : 2
Format : AC-3
Format/Info : Audio Coding 3
Mode extension : CM (complete main)
Format settings, Endianness : Big
Codec ID : A_AC3
Duration : 1h 30mn
Bit rate mode : Constant
Bit rate : 448 Kbps
Channel(s) : 6 channels
Channel positions : Front: L C R, Side: L R, LFE
Sampling rate : 48.0 KHz
Compression mode : Lossy
Stream size : 289 MiB (13%)
Language : English
Default : Yes
Forced : No

Screenshots:

Meru (2015)

Meru (2015)

Meru (2015)

Meru (2015)


Download link:
Links are Interchangeable - Single Extraction - Premium is support resumable

Mirror Download
Mirror1 : Meru (2015)

Mirror2: Meru (2015)

Torrent Download:
Meru (2015).torrent


Comments:(0) Views: (0)
Meru (2015) Fast Download via Rapidshare Fileserve Filesonic Megaupload, Meru (2015) Torrents and Emule Download or anything related.
Dear visitor, you are browsing our website as Guest.
We strongly recommend you to register and login to view hidden contents.
Information
Users of Guests are not allowed to comment this publication.